Zaloguj | Zarejestruj




Utwórz nowy temat Odpowiedz w wątku  [ Posty: 1 ] 
Autor Wiadomość
Mężczyzna
Tytuł: Blunt Force Trauma / Krwawa Gra 2015

PostNapisane: 30 sty 2017, o 05:08 
Admin
Avatar użytkownika
Dołączył(a): 1 lut 2012, o 09:09
Online: 3d 9h 34m 35s
Tematy: 8
Posty: 8
Poland

Thanks: 1
Thanked: 91 times
 Offline
Blunt Force Trauma / Krwawa Gra 2015

Obrazek
Załącznik:
bluntforce.jpg
bluntforce.jpg [ 133.51 KiB | Przeglądane 1239 razy ]


Obrazek
John (Ryan Kwanten) przemierza kraje Ameryki Południowej po drodze organizując nietypowe walki. W każdym pojedynku bierze udział dwoje uczestników. Oboje są ubrani w kamizelki kuloodporne, na dany znak zaczynają do siebie strzelać. Zwycięża ten, kto dłużej utrzyma się na nogach i nie przekroczy wcześniej wyznaczonej linii. Choć kamizelki chronią ich przed ranami postrzałowymi, siła uderzenia pocisku jest tak duża, że może spowodować poważne obrażenia wewnętrzne. Ta niebezpieczna gra jest zabroniona w większości krajów, jednak grupa międzynarodowych amatorów tego sportu i tak organizuje potajemne walki, którym zawsze towarzyszą zakłady.

Obrazek


Obrazek
Załącznik:
Blunt.Force.Trauma.2015.PL.720p.BluRay.x264-Nemu_00_15_03_00_30.jpg
Blunt.Force.Trauma.2015.PL.720p.BluRay.x264-Nemu_00_15_03_00_30.jpg [ 81.48 KiB | Przeglądane 1239 razy ]


Obrazek

Kod:
General
Complete name                            : Blunt.Force.Trauma.2015.PL.720p.BluRay.x264-Nemu.mp4
Format                                   : MPEG-4
Format profile                           : Base Media
Codec ID                                 : isom
File size                                : 3.41 GiB
Duration                                 : 1h 36mn
Overall bit rate mode                    : Variable
Overall bit rate                         : 5 061 Kbps
Writing application                      : Lavf53.31.100

Video
ID                                       : 1
Format                                   : AVC
Format/Info                              : Advanced Video Codec
Format profile                           : High@L4.1
Format settings, CABAC                   : Yes
Format settings, ReFrames                : 4 frames
Codec ID                                 : avc1
Codec ID/Info                            : Advanced Video Coding
Duration                                 : 1h 36mn
Bit rate                                 : 4 888 Kbps
Width                                    : 1 280 pixels
Height                                   : 720 pixels
Display aspect ratio                     : 16:9
Frame rate                               : 24.000 fps
Color space                              : YUV
Chroma subsampling                       : 4:2:0
Bit depth                                : 8 bits
Scan type                                : Progressive
Bits/(Pixel*Frame)                       : 0.221
Stream size                              : 3.30 GiB (97%)
Writing library                          : x264 core 148 r2694 3b70645
Encoding settings                        : cabac=1 / ref=4 / deblock=1:0:0 / analyse=0x3:0x113 / me=umh / subme=8 / psy=1 / psy_rd=1.00:0.00 / mixed_ref=1 / me_range=16 / chroma_me=1 / trellis=1 / 8x8dct=1 / cqm=0 / deadzone=21,11 / fast_pskip=1 / chroma_qp_offset=-2 / threads=18 / lookahead_threads=3 / sliced_threads=0 / nr=0 / decimate=1 / interlaced=0 / bluray_compat=0 / constrained_intra=0 / bframes=3 / b_pyramid=2 / b_adapt=2 / b_bias=0 / direct=3 / weightb=1 / open_gop=0 / weightp=2 / keyint=250 / keyint_min=24 / scenecut=40 / intra_refresh=0 / rc_lookahead=50 / rc=2pass / mbtree=1 / bitrate=4888 / ratetol=1.0 / qcomp=0.60 / qpmin=0 / qpmax=69 / qpstep=4 / cplxblur=20.0 / qblur=0.5 / vbv_maxrate=62500 / vbv_bufsize=78125 / nal_hrd=none / filler=0 / ip_ratio=1.40 / aq=1:1.00
Matrix coefficients                      : BT.709

Audio
ID                                       : 2
Format                                   : AAC
Format/Info                              : Advanced Audio Codec
Format profile                           : LC
Codec ID                                 : 40
Duration                                 : 1h 36mn
Bit rate mode                            : Variable
Bit rate                                 : 165 Kbps
Maximum bit rate                         : 192 Kbps
Channel(s)                               : 2 channels
Channel positions                        : Front: L R
Sampling rate                            : 48.0 KHz
Compression mode                         : Lossy
Stream size                              : 114 MiB (3%)


Film:
Hidden Message / Ukryta wiadomość:
To unhide this message you need to be registered user and give a beer to post author trough this icon

Aby zobaczyć tą wiadomość musisz być zarejestrowanym użytkownikiem i postawić piwo autorowi posta poprzez ikonkę


Zobacz profil
Tagi
Blunt,Force,Trauma,2015,John,Ryan,Krwawa,Gra

Wyświetl posty nie starsze niż:  Sortuj wg  

Utwórz nowy temat Odpowiedz w wątku  [ Posty: 1 ] 


Kto przegląda forum

Użytkownicy przeglądający ten dział: Brak zidentyfikowanych użytkowników i 1 gość

Panel

Góra Nie możesz rozpoczynać nowych tematów
Nie możesz odpowiadać w tematach
Nie możesz edytować swoich postów
Nie możesz usuwać swoich postów
Nie możesz dodawać załączników
Szukaj:
Skocz do:  


cron