X-Taze.pl
http://www.x-taze.pl/

Be Somebody / Po prostu być 2016
http://www.x-taze.pl/viewtopic.php?f=44&t=33650
Strona 1 z 1

Autor:  nemuritorul [ 9 lut 2017, o 15:48 ]
Tytuł:  Be Somebody / Po prostu być 2016

Be Somebody / Po prostu być 2016

Obrazek
Załącznik:
besomebody.jpg
besomebody.jpg [ 8.31 KiB | Przeglądane 3130 razy ]


Obrazek
Nastoletni gwiazdor muzyki pop Jordan Jaye (Matthew Espinosa) chciałby choć na chwilę odpocząć od sławy. Podczas ucieczki przed grupą fanek wpada na Emily Lowe (Sarah Jeffery) - uczennicę szkoły artystycznej i dostarczycielkę pizzy. Choć dziewczyna zupełnie go ignoruje, Jordanowi udaje się ją namówić do pomocy. Kilka dni, które wspólnie spędzą, bardzo ich do siebie zbliży. Młodzieżowa komedia romantyczna Joshuy Caldwella (Assassin) to ciepły film o przyjaźni, szukaniu piękna w drugim człowieku i walce z własnymi słabościami.

Obrazek


Obrazek
Załącznik:
Be.Somebody.2016.PL.720p.WEB-DL.x264-Nemu_00_45_03_00_9.jpg
Be.Somebody.2016.PL.720p.WEB-DL.x264-Nemu_00_45_03_00_9.jpg [ 86.14 KiB | Przeglądane 3130 razy ]


Obrazek

Kod:
General
Complete name                            : Be.Somebody.2016.PL.720p.WEB-DL.x264-Nemu.mp4
Format                                   : MPEG-4
Format profile                           : Base Media
Codec ID                                 : isom
File size                                : 2.13 GiB
Duration                                 : 1h 27mn
Overall bit rate                         : 3 509 Kbps
ContentType                              : Unknown Type
Writing application                      : Lavf55.33.100
iTunMOVI                                 : <?xml version="1.0" encoding="UTF-8"?><!DOCTYPE plist PUBLIC "-//Apple Computer//DTD PLIST 1.0//EN"  "http://www.apple.com/DTDs/PropertyList-1.0.dtd"><plist version="1.0"><dict><key>studio</key><string>studio</string><key>cast</key><array><dict><key>name</key><string></string></dict></array><key>directors</key><array><dict><key>name</key><string></string></dict></array><key>producers</key><array><dict><key>name</key><string></string></dict></array><key>codirectors</key><array><dict><key>name</key><string>codirector</string></dict></array><key>screenwriters</key><array><dict><key>name</key><string></string></dict></array></dict></plist>

Video
ID                                       : 1
Format                                   : AVC
Format/Info                              : Advanced Video Codec
Format profile                           : High@L4.1
Format settings, CABAC                   : Yes
Format settings, ReFrames                : 5 frames
Codec ID                                 : avc1
Codec ID/Info                            : Advanced Video Coding
Duration                                 : 1h 27mn
Bit rate                                 : 3 311 Kbps
Width                                    : 1 280 pixels
Height                                   : 534 pixels
Display aspect ratio                     : 2.40:1
Original display aspect ratio            : 2.40:1
Frame rate                               : 23.976 fps
Color space                              : YUV
Chroma subsampling                       : 4:2:0
Bit depth                                : 8 bits
Scan type                                : Progressive
Bits/(Pixel*Frame)                       : 0.202
Stream size                              : 2.01 GiB (94%)
Writing library                          : x264 core 148 r2638 7599210
Encoding settings                        : cabac=1 / ref=5 / deblock=1:-3:-3 / analyse=0x3:0x113 / me=umh / subme=7 / psy=1 / psy_rd=1.00:0.00 / mixed_ref=1 / me_range=24 / chroma_me=1 / trellis=1 / 8x8dct=1 / cqm=0 / deadzone=21,11 / fast_pskip=1 / chroma_qp_offset=-2 / threads=12 / lookahead_threads=2 / sliced_threads=0 / nr=0 / decimate=1 / interlaced=0 / bluray_compat=0 / constrained_intra=0 / bframes=3 / b_pyramid=2 / b_adapt=2 / b_bias=0 / direct=1 / weightb=1 / open_gop=0 / weightp=2 / keyint=240 / keyint_min=23 / scenecut=40 / intra_refresh=0 / rc_lookahead=40 / rc=2pass / mbtree=1 / bitrate=3311 / ratetol=1.0 / qcomp=0.60 / qpmin=0 / qpmax=69 / qpstep=4 / cplxblur=20.0 / qblur=0.5 / vbv_maxrate=62500 / vbv_bufsize=78125 / nal_hrd=none / filler=0 / ip_ratio=1.40 / aq=1:1.00
Color primaries                          : BT.709
Transfer characteristics                 : BT.709
Matrix coefficients                      : BT.709

Audio
ID                                       : 2
Format                                   : AAC
Format/Info                              : Advanced Audio Codec
Format profile                           : LC
Codec ID                                 : 40
Duration                                 : 1h 27mn
Bit rate mode                            : Constant
Bit rate                                 : 192 Kbps
Channel(s)                               : 2 channels
Channel positions                        : Front: L R
Sampling rate                            : 48.0 KHz
Compression mode                         : Lossy
Stream size                              : 119 MiB (5%)


Film:
Hidden Message / Ukryta wiadomość:
To unhide this message you need to be registered user and give a beer to post author trough this icon

Aby zobaczyć tą wiadomość musisz być zarejestrowanym użytkownikiem i postawić piwo autorowi posta poprzez ikonkę

Strona 1 z 1 Strefa czasowa: UTC + 1 [ DST ]
Powered by phpBB © 2000, 2002, 2005, 2007 phpBB Group
http://www.phpbb.com/