Zaloguj | Zarejestruj




Utwórz nowy temat Odpowiedz w wątku  [ Posty: 1 ] 
Autor Wiadomość
Mężczyzna
Tytuł: El desconocido / Retribution / Nieznany 2015

PostNapisane: 10 sty 2017, o 18:36 
VIP
Avatar użytkownika
Nastrój:
look_down
Dołączył(a): 31 gru 2011, o 16:29
Online: 41d 13h 42m 36s
Tematy: 88
Posty: 79

Points: 1
Thanks: 7
Thanked: 647 times
 Offline
El desconocido / Retribution / Nieznany 2015

Obrazek
Załącznik:
7671780.3.jpg
7671780.3.jpg [ 63.37 KiB | Przeglądane 1251 razy ]


Obrazek
Carlos podwozi dzieci do szkoły, jednak wsiadając nie zauważa, że samochód jest otwarty. Uruchamia go i rusza. Chwilę później odbiera telefon od anonimowego rozmówcy, stając się ofiarą szantażu. Jeśli nie spełni usłyszanych żądań, szantażysta zdetonuje ładunek wybuchowy, który zainstalował w samochodzie.

Obrazek


Obrazek
Załącznik:
vlcsnap-2017-01-10-17h57m24s744.jpg
vlcsnap-2017-01-10-17h57m24s744.jpg [ 190.36 KiB | Przeglądane 1251 razy ]


Obrazek

Kod:
General
Complete name                            : Retribution.2015.SUB.PL.720p.BRRip.x264-Argos.mp4
Format                                   : MPEG-4
Format profile                           : Base Media / Version 2
Codec ID                                 : mp42
File size                                : 2.89 GiB
Duration                                 : 1h 40mn
Overall bit rate mode                    : Variable
Overall bit rate                         : 4 109 Kbps
Encoded date                             : UTC 2017-01-10 12:53:03
Tagged date                              : UTC 2017-01-10 14:58:00

Video
ID                                       : 1
Format                                   : AVC
Format/Info                              : Advanced Video Codec
Format profile                           : High@L3.1
Format settings, CABAC                   : Yes
Format settings, ReFrames                : 4 frames
Codec ID                                 : avc1
Codec ID/Info                            : Advanced Video Coding
Duration                                 : 1h 40mn
Bit rate                                 : 3 509 Kbps
Width                                    : 1 280 pixels
Height                                   : 544 pixels
Display aspect ratio                     : 2.35:1
Frame rate mode                          : Variable
Frame rate                               : 23.976 fps
Minimum frame rate                       : 5.994 fps
Maximum frame rate                       : 23.981 fps
Color space                              : YUV
Chroma subsampling                       : 4:2:0
Bit depth                                : 8 bits
Scan type                                : Progressive
Bits/(Pixel*Frame)                       : 0.210
Stream size                              : 2.43 GiB (84%)
Writing library                          : x264 core 146 r2538 121396c
Encoding settings                        : cabac=1 / ref=3 / deblock=1:0:0 / analyse=0x3:0x133 / me=hex / subme=7 / psy=1 / psy_rd=1.00:0.00 / mixed_ref=1 / me_range=16 / chroma_me=1 / trellis=1 / 8x8dct=1 / cqm=0 / deadzone=21,11 / fast_pskip=1 / chroma_qp_offset=-2 / threads=6 / lookahead_threads=1 / sliced_threads=0 / nr=0 / decimate=1 / interlaced=0 / bluray_compat=0 / constrained_intra=0 / bframes=3 / b_pyramid=2 / b_adapt=1 / b_bias=0 / direct=1 / weightb=1 / open_gop=0 / weightp=2 / keyint=250 / keyint_min=25 / scenecut=40 / intra_refresh=0 / rc_lookahead=40 / rc=abr / mbtree=1 / bitrate=3509 / ratetol=1.0 / qcomp=0.60 / qpmin=10 / qpmax=51 / qpstep=4 / ip_ratio=1.40 / aq=1:1.00
Encoded date                             : UTC 2017-01-10 12:53:04
Tagged date                              : UTC 2017-01-10 14:58:00

Audio
ID                                       : 2
Format                                   : AAC
Format/Info                              : Advanced Audio Codec
Format profile                           : LC
Codec ID                                 : 40
Duration                                 : 1h 40mn
Bit rate mode                            : Variable
Bit rate                                 : 640 Kbps
Channel(s)                               : 6 channels
Channel positions                        : Front: L C R, Side: L R, LFE
Sampling rate                            : 48.0 KHz
Compression mode                         : Lossy
Stream size                              : 460 MiB (16%)
Encoded date                             : UTC 2017-01-10 12:53:04
Tagged date                              : UTC 2017-01-10 14:58:00


Film:
Hidden Message / Ukryta wiadomość:
To unhide this message you need to be registered user and give a beer to post author trough this icon

Aby zobaczyć tą wiadomość musisz być zarejestrowanym użytkownikiem i postawić piwo autorowi posta poprzez ikonkę


Zobacz profil
Tagi
el desconocido,retribution,nieznany,thriller,Hiszpania,2015,Goya Toledo,Luis Tosar

Wyświetl posty nie starsze niż:  Sortuj wg  

Utwórz nowy temat Odpowiedz w wątku  [ Posty: 1 ] 


Kto przegląda forum

Użytkownicy przeglądający ten dział: Brak zidentyfikowanych użytkowników i 1 gość

Panel

Góra Nie możesz rozpoczynać nowych tematów
Nie możesz odpowiadać w tematach
Nie możesz edytować swoich postów
Nie możesz usuwać swoich postów
Nie możesz dodawać załączników
Szukaj:
Skocz do:  


cron