Zaloguj | Zarejestruj




Utwórz nowy temat Odpowiedz w wątku  [ Posty: 1 ] 
Autor Wiadomość
Mężczyzna
Tytuł: How to Be Single / Jak To Robią Single 2016

PostNapisane: 27 lut 2017, o 00:30 
VIP
Avatar użytkownika
Nastrój:
look_down
Dołączył(a): 31 gru 2011, o 16:29
Online: 41d 13h 42m 36s
Tematy: 88
Posty: 79

Points: 1
Thanks: 7
Thanked: 646 times
 Offline
How to Be Single / Jak To Robią Single 2016

Obrazek
Załącznik:
7713885.3.jpg
7713885.3.jpg [ 114.89 KiB | Przeglądane 1069 razy ]


Obrazek
Istnieją szczęśliwi single, nieszczęśliwi single i jest jeszcze... Alice. I Robin, Lucy, Meg, Tom oraz David. W Nowym Jorku roi się od singli poszukujących drugiej połówki — nieważne czy pragną miłości na całe życie, rozrywki na jedną noc, czy czegoś pomiędzy jednym a drugim. Tym, co łączy ich wszystkich, miotających się w gąszczu zaczepnych sms-ów i przygód na jedną noc, jest potrzeba zrozumienia, jak to jest tak naprawdę być singlem w świecie pełnym, stale ewoluujących definicji, miłości. Poszukiwanie szczęścia w mieście, które nigdy nie śpi dawno nie było tak ekscytujące...

Obrazek


Obrazek
Załącznik:
vlcsnap-2017-02-26-23h54m27s957.jpg
vlcsnap-2017-02-26-23h54m27s957.jpg [ 60.43 KiB | Przeglądane 1069 razy ]


Obrazek

Kod:
General
Complete name                            : How.To.Be.Single.2016.BDRip.264-Argos2.mp4
Format                                   : MPEG-4
Format profile                           : Base Media
Codec ID                                 : isom
File size                                : 687 MiB
Duration                                 : 1h 49mn
Overall bit rate                         : 875 Kbps
Writing application                      : Lavf57.41.100

Video
ID                                       : 1
Format                                   : AVC
Format/Info                              : Advanced Video Codec
Format profile                           : High@L2.1
Format settings, CABAC                   : Yes
Format settings, ReFrames                : 4 frames
Codec ID                                 : avc1
Codec ID/Info                            : Advanced Video Coding
Duration                                 : 1h 49mn
Bit rate                                 : 739 Kbps
Width                                    : 640 pixels
Height                                   : 272 pixels
Display aspect ratio                     : 2.35:1
Frame rate mode                          : Constant
Frame rate                               : 23.976 fps
Color space                              : YUV
Chroma subsampling                       : 4:2:0
Bit depth                                : 8 bits
Scan type                                : Progressive
Bits/(Pixel*Frame)                       : 0.177
Stream size                              : 580 MiB (84%)
Writing library                          : x264 core 148
Encoding settings                        : cabac=1 / ref=3 / deblock=1:0:0 / analyse=0x3:0x113 / me=hex / subme=7 / psy=1 / psy_rd=1.00:0.00 / mixed_ref=1 / me_range=16 / chroma_me=1 / trellis=1 / 8x8dct=1 / cqm=0 / deadzone=21,11 / fast_pskip=1 / chroma_qp_offset=-2 / threads=6 / lookahead_threads=1 / sliced_threads=0 / nr=0 / decimate=1 / interlaced=0 / bluray_compat=0 / constrained_intra=0 / bframes=3 / b_pyramid=2 / b_adapt=1 / b_bias=0 / direct=1 / weightb=1 / open_gop=0 / weightp=2 / keyint=250 / keyint_min=23 / scenecut=40 / intra_refresh=0 / rc_lookahead=40 / rc=abr / mbtree=1 / bitrate=739 / ratetol=1.0 / qcomp=0.60 / qpmin=0 / qpmax=69 / qpstep=4 / ip_ratio=1.40 / aq=1:1.00

Audio
ID                                       : 2
Format                                   : AAC
Format/Info                              : Advanced Audio Codec
Format profile                           : LC
Codec ID                                 : 40
Duration                                 : 1h 49mn
Duration_LastFrame                       : -8ms
Bit rate mode                            : Constant
Bit rate                                 : 132 Kbps
Channel(s)                               : 2 channels
Channel positions                        : Front: L R
Sampling rate                            : 48.0 KHz
Compression mode                         : Lossy
Stream size                              : 103 MiB (15%)


Film:
Hidden Message / Ukryta wiadomość:
To unhide this message you need to be registered user and give a beer to post author trough this icon

Aby zobaczyć tą wiadomość musisz być zarejestrowanym użytkownikiem i postawić piwo autorowi posta poprzez ikonkę


Zobacz profil
Tagi
how to be a single,jak to robią single,komedia,USA,Dakota Johnson,Rebel Wilson,Leslie Mann

Wyświetl posty nie starsze niż:  Sortuj wg  

Utwórz nowy temat Odpowiedz w wątku  [ Posty: 1 ] 


Kto przegląda forum

Użytkownicy przeglądający ten dział: Brak zidentyfikowanych użytkowników i 1 gość

Panel

Góra Nie możesz rozpoczynać nowych tematów
Nie możesz odpowiadać w tematach
Nie możesz edytować swoich postów
Nie możesz usuwać swoich postów
Nie możesz dodawać załączników
Szukaj:
Skocz do:  


cron